DNS SERVER AENDERNum der staatlichen Zensur zu umgehen. Sollten wir von eurem Provider geseprrt werden, nutzt den TOR BROWSER oder ändert euren DNS SERVER.

Filmwünsche können bei uns im Forum abgegeben werden

Wir Speichern Nicht




 
 
 
Top Releases
Norman.2016.German.AC3D.DL.1...
Wo.steckt.Sidney.Hall.2017.G...
Chappie.2015.German.AC3.DL.1...
Solo.A.Star.Wars.Story.2018....
Der.Buchladen.der.Florance.G...
Jurassic.World.2.Das.gefalle...
Jurassic.World.2.Das.gefalle...
Racer.and.the.Jailbird.2017....
Racer.and.the.Jailbird.2017....
Racer.and.the.Jailbird.2017....

Cinedubs
First.Reformed.2017.German.D...
Mamma.Mia.2.Here.We.Go.Again...
First.Reformed.German.DL.AC3...
The.First.Purge.2018.German....
No.Way.Out.Gegen.die.Flammen...
First.Reformed.German.DL.AC3...
First.Reformed.German.DL.AC3...
The.First.Purge.German.DL.AC...
The.First.Purge.German.DL.AC...
Book.Club.Das.Beste.kommt.n...

Neuerscheinungen 2017-18
Mom.and.Dad.2017.German.AC3....
Jurassic.World.2.Das.gefalle...
Jurassic.World.2.Das.gefalle...
Zombie.Nightmare.1987.MULTi....
The.Boneyard.1991.MULTi.COMP...
Rueckenwind.von.vorn.2018.Ge...
Rueckenwind.von.vorn.2018.Ge...
The.Hurricane.Heist.2018.Ger...
Alte.Zoepfe.2018.German.DL.1...
Alte.Zoepfe.2018.German.DL.7...

XXX
Petite.18.08.30.Lenna.Lux.XX...
PervMom.18.08.28.Lily.Lane.G...
PornFidelity.E759.Ariel.Grac...
Natsu.No.Omoide.2.XXX.1080p....
My.First.Transsexual.10.XXX....
MonstersOfCock.18.09.09.Bren...
NaughtyOffice.18.09.09.Gia.D...
MySistersHotFriend.18.09.10....
My.First.Transsexual.10.XXX....
MyFamilyPies.18.09.09.Eliza....
MeloneChallenge.18.09.08.Wen...
MatureNL.18.09.06.Agness.XXX...
MySistersHotFriend.18.09.07....
Model.Collection.77.XXX.1080...
MilfsLikeItBig.18.09.07.Kayl...
MilfHunter.18.09.10.Ryan.Smi...
Model.Collection.54.XXX.1080...
NFBusty.18.09.07.Bridgette.B...
My.Baby.Got.Back.Whitewashed...
Natsu.No.Omoide.2.XXX.720p.W...

3D
Solo.A.Star.Wars.Story.3D.20...
Solo.A.Star.Wars.Story.3D.20...
Die.Biene.Maja.2.Die.Honigsp...
Avengers.Infinity.War.3D.201...
Avengers.Infinity.War.3D.201...
Rampage.Big.Meets.Bigger.3D....
Rampage.Big.Meets.Bigger.3D....
Rampage.Big.Meets.Bigger.3D....
Winter.Games.3D.2013.DUAL.CO...
Tomb.Raider.3D.2018.German.7...
Rampage.Big.Meets.Bigger.3D....
Rampage.Big.Meets.Bigger.3D....
Tomb.Raider.3D.2018.MULTi.CO...
Pacific.Rim.Uprising.3D.2018...
Ready.Player.One.3D.2018.Ger...

Old_Stuff
Schimanski.-.Duisburg.Ruhror...
Akte.X.S02.German.DTS.DL.108...
How.I.Met.Your.Mother.S02.Ge...
Akte.X.S01.German.DTS.DL.108...
Den.Himmel.gibts.echt.DL.108...
Vikings.S02.German.DL.1080p....
Be.Kind.Rewind.Abgedreht.200...
Be.Kind.Rewind.Abgedreht.200...
Dracula.The.Dark.Lord.2012.G...
21.2008.German.DL.1080p.BluR...
Achtung.fertig.WK.Swissgerma...
The.Ouija.Exorcism.2015.MULT...
Meine.liebe.Rabenmutter.germ...
Da.Vincis.Demons.S01.Complet...
Eragon.Das.Vermaechtnis.der....

Filme
Longmire.S05.COMPLETE.GERMAN...
Snowfall.S02.German.DD51.Dub...
Into.the.Badlands.S03.German...
Into.the.Badlands.S03.German...
Animal.Kingdom.S03.GERMAN.DD...
Die.Nadel.1981.German.AC3.DL...
Saw.III.Directors.Cut.2006.G...
Meine.teuflischen.Nachbarn.1...
Gorillas.im.Nebel.1988.Germa...
Paparazzi.2004.German.AC3D.D...
Shaolin.Kickers.aka.Shaolin....
Three.Burials.Die.drei.Begra...
Moulin.Rouge.2001.German.DL....
Jurassic.World.2.Das.gefalle...
Saw.I.Directors.Cut.2004.Ger...
Vier.im.roten.Kreis.1970.Ger...
Liebe.auf.den.ersten.Schlag....
Alter.Ego.Noch.groessere.Pro...
Der.phantastische.Planet.197...
Der.phantastische.Planet.197...
Agatha.Christies.Ein.Unbekan...
Agatha.Christies.Ein.Unbekan...
Argo.2012.German.DL.2160p.UH...
MotoGP.Moto2.Moto3.Saison.20...

 
 
The.Flash.2014.S04.GERMAN.1080p.HDTV.x264-MDGP
Jahr: 2017
Genre: Action | Abenteuer | Drama
Sprache: Deutsch AC3
Laufzeit: 41min je Folge
Bitrate: 4700 Kbps
Format: MKV
Größe: 1,4 GB je Folge
Release:

Beschreibung:

Als ein Teilchenbeschleuniger in Central City kurz nach seiner Inbetriebnahme explodiert, wird der Forensiker Barry Allen von einem Blitz getroffen. Neun Monate später erwacht er aus dem Koma - und hat sich ziemlich verändert: Der bisher eher unscheinbare Barry kann sich plötzlich so schnell bewegen, dass man ihn nur noch als Lichtblitz wahrnimmt. Von nun an nutzt er seine übernatürliche Schnelligkeit dafür, als "The Flash" Menschen zu retten und Verbrecher zu fassen.

 

enthaltene Folgen:

Folgen 01-10 gibt es bisher nur als 720p-Release siehe HIER

The.Flash.2014.S04E11.Superheld.in.Vertretung.GERMAN.1080p.HDTV.x264-MDGP

The.Flash.2014.S04E12.Liebling.ich.habe.Team.Flash.geschrumpft.GERMAN.1080p.HDTV.x264.REPACK-MDGP

The.Flash.2014.S04E13.Flucht.aus.Iron.Heights.GERMAN.1080p.HDTV.x264-MDGP

The.Flash.2014.S04E14.Meta.Nummer.9.GERMAN.1080p.HDTV.x264-MDGP

The.Flash.2014.S04E15.Eine.Frage.der.Zeit.GERMAN.1080p.HDTV.x264-MDGP

The.Flash.2014.S04E16.Lauf.Iris.lauf.GERMAN.1080p.HDTV.x264-MDGP

Folgen 17-19 wurden bisher nicht released

The.Flash.2014.S04E20.Erleuchtung.GERMAN.1080p.HDTV.x264-MDGP

 

The.Flash.2014.S04E21.Harry.und.die.Harrisons.GERMAN.1080p.HDTV.x264-MDGP  NEU



General

Complete name                            : The.Flash.2014.S04E11.Superheld.in.Vertretung.GERMAN.1080p.HDTV.x264-MDGP\mdgp-theflash2014s04e011-1080p.mkv
Format                                   : Matroska
Format version                           : Version 4 / Version 2
File size                                : 1.41 GiB
Duration                                 : 40mn 39s
Overall bit rate                         : 4 968 Kbps
Encoded date                             : UTC 2018-07-13 07:10:57
Writing application                      : mkvmerge v7.6.0 ('Garden of Dreams') 64bit built on Feb  8 2015 13:04:34
Writing library                          : libebml v1.3.1 + libmatroska v1.4.2
DURATION                                 : 00:40:39.488000000
NUMBER_OF_FRAMES                         : 76234
NUMBER_OF_BYTES                          : 58547712
_STATISTICS_WRITING_APP                  : mkvmerge v7.6.0 ('Garden of Dreams') 64bit built on Feb  8 2015 13:04:34
_STATISTICS_WRITING_DATE_UTC             : 2018-07-13 07:10:57
_STATISTICS_TAGS                         : BPS DURATION NUMBER_OF_FRAMES NUMBER_OF_BYTES

Video
ID                                       : 1
Format                                   : AVC
Format/Info                              : Advanced Video Codec
Format profile                           : [email protected]
Format settings, CABAC                   : Yes
Format settings, ReFrames                : 4 frames
Codec ID                                 : V_MPEG4/ISO/AVC
Duration                                 : 40mn 39s
Bit rate                                 : 4 677 Kbps
Width                                    : 1 920 pixels
Height                                   : 1 080 pixels
Display aspect ratio                     : 16:9
Frame rate mode                          : Constant
Frame rate                               : 25.000 fps
Color space                              : YUV
Chroma subsampling                       : 4:2:0
Bit depth                                : 8 bits
Scan type                                : Progressive
Bits/(Pixel*Frame)                       : 0.090
Stream size                              : 1.33 GiB (94%)
Writing library                          : x264 core 155 r2901 7d0ff22
Encoding settings                        : cabac=1 / ref=4 / deblock=1:-3:-3 / analyse=0x3:0x113 / me=umh / subme=7 / psy=1 / psy_rd=1.00:0.00 / mixed_ref=1 / me_range=16 / chroma_me=1 / trellis=1 / 8x8dct=1 / cqm=0 / deadzone=21,11 / fast_pskip=0 / chroma_qp_offset=-2 / threads=12 / lookahead_threads=2 / sliced_threads=0 / nr=0 / decimate=1 / interlaced=0 / bluray_compat=0 / constrained_intra=0 / bframes=3 / b_pyramid=2 / b_adapt=1 / b_bias=0 / direct=1 / weightb=1 / open_gop=0 / weightp=2 / keyint=250 / keyint_min=25 / scenecut=40 / intra_refresh=0 / rc_lookahead=40 / rc=crf / mbtree=1 / crf=20.0 / qcomp=0.60 / qpmin=0 / qpmax=69 / qpstep=4 / ip_ratio=1.40 / aq=1:1.00
Language                                 : German
Default                                  : Yes
Forced                                   : No
Color primaries                          : BT.709
Transfer characteristics                 : BT.709
Matrix coefficients                      : BT.709

Audio
ID                                       : 2
Format                                   : AC-3
Format/Info                              : Audio Coding 3
Mode extension                           : CM (complete main)
Format settings, Endianness              : Big
Codec ID                                 : A_AC3
Duration                                 : 40mn 39s
Bit rate mode                            : Constant
Bit rate                                 : 192 Kbps
Channel(s)                               : 2 channels
Channel positions                        : Front: L R
Sampling rate                            : 48.0 KHz
Bit depth                                : 16 bits
Compression mode                         : Lossy
Stream size                              : 55.8 MiB (4%)
Language                                 : German
Default                                  : Yes
Forced                                   : No



Download:
Share-Online.biz Share-Online.bizShare-Online.bizShare-Online.biz | Rapidgator.net Rapidgator.netRapidgator.netRapidgator.net
 

Kommentare

  1. Geschrieben am 3. August 2018, 15:20 Uhr von Memento Mori · #

    Guten Tag,
    laut Beschreibung auf fernsehserien.de, um was es in jeder Folge geht, ist Episode 15 in Wahrheit Folge 14 – Meta Nummer 9.

    The.Flash.2014.S04E15.Eine.Frage.der.Zeit.GERMAN.1080p.HDTV.x264-MDGP

    Die aktuelle Folge 15 ist leider nicht korrekt.

    Liebe Grüße