Filecrypt zeigt vereinzelt Files als "n/a". Die Downloads sind trotzdem komplett.

DNS SERVER AENDERNum der staatlichen Zensur zu umgehen. Sollten wir von eurem Provider geseprrt werden, nutzt den TOR BROWSER oder ändert euren DNS SERVER.

Filmwünsche können bei uns im Forum abgegeben werden

Wir Speichern Nicht




 
 
 
Top Releases
Die.brilliante.Mademoiselle....
Die.brilliante.Mademoiselle....
Das.Geheimniss.von.Marrowbon...
Das.Geheimniss.von.Marrowbon...
Final.Take-Off.Einsame.Entsc...
Passengers.2016.German.AC3.D...
Wolfsnaechte.2018.German.AC3...
Brawl.in.Cell.Block.99.2017....
Gravity.Diamond.Luxe.Edition...
Middle.School.The.Worst.Year...

Cinedubs
Die.unglaubliche.Reise.des.F...
Die.unglaubliche.Reise.des.F...
BlacKkKlansman.2018.GERMAN.D...
BlacKkKlansman.2018.GERMAN.D...
Mile.22.2018.German.AC3MD.DL...
Mile.22.2018.German.AC3MD.DL...
Die.Unglaublichen.2.German.D...
Die.Unglaublichen.2.German.D...
Blame.Verbotenes.Verlangen.G...
Blame.Verbotenes.Verlangen.G...

Neuerscheinungen 2017-18
Shock.und.Awe.Krieg.der.Lueg...
Shock.und.Awe.Krieg.der.Lueg...
Hexe.Lilli.rettet.Weihnachte...
Hexe.Lilli.rettet.Weihnachte...
211.Cops.under.Fire.2018.Ger...
211.Cops.under.Fire.2018.Ger...
The.Strangers.Opfernacht.201...
The.Strangers.Opfernacht.201...
Serdar.Somuncu.H2.Universe.D...
Serdar.Somuncu.H2.Universe.D...

XXX
BrownBunnies.18.10.05.Demi.S...
MistressT.18.01.02.Virgin.Hu...
ImmoralLive.18.10.04.Georgie...
Spizoo.18.10.01.Krissy.Lynn....
ExxxtraSmall.18.10.04.Demi.S...
Nubiles.18.10.02.Cristin.Bro...
POVLife.18.10.01.Addison.Lee...
MistressT.17.09.01.Sissy.Tra...
HerLimit.18.10.05.Ashley.Woo...
ATKGirlfriends.18.10.03.Arie...
HornyDoctor.18.10.05.Aria.Ro...
SweetheartVideo.18.10.01.Abi...
Cum4K.18.10.02.Mia.Collins.C...
PrivateSociety.18.10.02.Gang...
GermanGooGirls.18.10.02.Dais...
HarmonyVision.18.10.04.Lady....
Pantyhosed4U.18.10.03.Amber....
FamilyStrokes.18.10.04.Esper...
GapeLand.18.10.02.Lilit.Swee...
WankItNow.17.11.16.Kellie.Ob...

3D
Detective.Dee.und.die.Legend...
Detective.Dee.und.die.Legend...
Skyscraper.3D.German.DL.AC3....
Ant-Man.and.the.Wasp.2018.3D...
Jurassic.World.Das.gefallene...
Jurassic.World.Das.gefallene...
Best.of.3D.vol.10.-.12.GERMA...
Die.Biene.Maja.2.Die.Honigsp...
Sharknado.6.The.Last.One.3D....
Solo.A.Star.Wars.Story.3D.20...
Solo.A.Star.Wars.Story.3D.20...
Die.Biene.Maja.2.Die.Honigsp...
Avengers.Infinity.War.3D.201...
Avengers.Infinity.War.3D.201...
Rampage.Big.Meets.Bigger.3D....

Old_Stuff
Species.IV.Das.Erwachen.2007...
Species.IV.Das.Erwachen.2007...
Hotel.Transsilvanien.2012.Ge...
The.Dead.2010.German.DL.1080...
The.Dead.2.India.2013.German...
Britney.Spears.Live.The.Femm...
Buffy.The.Vampire.Slayer.199...
IMAX.Ride.Around.The.World.2...
Schimanski.-.Duisburg.Ruhror...
Akte.X.S02.German.DTS.DL.108...
How.I.Met.Your.Mother.S02.Ge...
Akte.X.S01.German.DTS.DL.108...
Den.Himmel.gibts.echt.DL.108...
Vikings.S02.German.DL.1080p....
Be.Kind.Rewind.Abgedreht.200...

Filme
Der.Meisterdieb.und.seine.Sc...
Der.Meisterdieb.und.seine.Sc...
Wen.die.Geister.lieben.2008....
Surf.Nazis.Must.Die.1987.AC3...
Einsam.sind.die.Tapferen.196...
F.117A.Stealth.War.1992.Germ...
Fritz.Lang.2016.German.1080p...
Bad.Boys.-.Harte.Jungs.1995....
Am.Himmel.von.China.1945.Ger...
Das.schweigende.Klassenzimme...
The.Darkest.Minds.-.Die.Uebe...
Black.Lightning.S02.GERMAN.D...
Black.Lightning.S02.GERMAN.D...
Crazy.Ex.Girlfriend.S03.Germ...
Crazy.Ex.Girlfriend.S03.Germ...
The.Big.Bang.Theory.S11.Germ...
The.Big.Bang.Theory.S11.Germ...
The.Walking.Dead.S09.GERMAN....
The.Walking.Dead.S09.GERMAN....
Krypton.S01.German.DD51.Dubb...
Die.letzte.Front.Defenders.o...
The.Blacklist.S05D01-6.MULTi...
Der.Schakal.1997.German.DTS....
Tetsuo.The.Iron.Man.1989.Ger...

 
 
Edge.of.War.Zug.des.Todes.2010.German.1080p.BluRay.x264-iFPD

Jahr: 2010
Genre: Drama, Krieg
Sprache: Deutsch DTS
Laufzeit: 2h 3mn
Bitrate: 8 866 Kbps
Format: MKV
Größe: 7.65 GiB
Release:

Beschreibung:

Sibirien im Jahr 1946. In Stalins Arbeitslagern hocken deutsche Kriegsgefangene in Baracken direkt neben ehemaligen russischen Kriegsgefangenen aus Deutschland, die von Stalin wie Kollaborateure behandelt werden. In dieser Welt landet als Aufseher der vormalige Kriegsheld und Eisenbahningenieur Ignat. Er schafft sich Feinde auf allen Seiten, klaut dem Kollegen die Frau, hört von einer Lokomotive in der Wildnis und zieht los, sie in eigener Kraftanstrengung zu reaktivieren. Dabei findet er ein deutsches Wolfsmädchen.



Complete name                            : ifpd-edgeofwar-1080p.mkv
Format                                   : Matroska
Format version                           : Version 4 / Version 2
File size                                : 7.65 GiB
Duration                                 : 2h 3mn
Overall bit rate                         : 8 866 Kbps
Encoded date                             : UTC 2013-11-15 23:54:21
Writing application                      : mkvmerge v6.0.0 ('Coming Up For Air') built on Jan 20 2013 09:52:00
Writing library                          : libebml v1.3.0 + libmatroska v1.4.0

Video
ID                                       : 1
Format                                   : AVC
Format/Info                              : Advanced Video Codec
Format profile                           : [email protected]
Format settings, CABAC                   : Yes
Format settings, ReFrames                : 4 frames
Codec ID                                 : V_MPEG4/ISO/AVC
Duration                                 : 2h 3mn
Bit rate                                 : 7 356 Kbps
Width                                    : 1 920 pixels
Height                                   : 1 080 pixels
Display aspect ratio                     : 16:9
Frame rate mode                          : Constant
Frame rate                               : 24.000 fps
Color space                              : YUV
Chroma subsampling                       : 4:2:0
Bit depth                                : 8 bits
Scan type                                : Progressive
Bits/(Pixel*Frame)                       : 0.148
Stream size                              : 6.20 GiB (81%)
Title                                    : Edge of War - Zug des Todes (2010)
Writing library                          : x264 core 140 r2377 1ca7bb9
Encoding settings                        : cabac=1 / ref=4 / deblock=1:-3:-3 / analyse=0x3:0x113 / me=umh / subme=7 / psy=1 / psy_rd=1.00:0.15 / mixed_ref=1 / me_range=16 / chroma_me=1 / trellis=1 / 8x8dct=1 / cqm=0 / deadzone=21,11 / fast_pskip=0 / chroma_qp_offset=-3 / threads=8 / lookahead_threads=1 / sliced_threads=0 / nr=0 / decimate=1 / interlaced=0 / bluray_compat=0 / constrained_intra=0 / bframes=3 / b_pyramid=2 / b_adapt=1 / b_bias=0 / direct=3 / weightb=1 / open_gop=0 / weightp=2 / keyint=250 / keyint_min=24 / scenecut=40 / intra_refresh=0 / rc_lookahead=40 / rc=2pass / mbtree=1 / bitrate=7356 / ratetol=1.0 / qcomp=0.60 / qpmin=0 / qpmax=69 / qpstep=4 / cplxblur=20.0 / qblur=0.5 / ip_ratio=1.40 / aq=1:1.00
Default                                  : Yes
Forced                                   : No

Audio
ID                                       : 2
Format                                   : DTS
Format/Info                              : Digital Theater Systems
Mode                                     : 16
Format settings, Endianness              : Big
Codec ID                                 : A_DTS
Duration                                 : 2h 3mn
Bit rate mode                            : Constant
Bit rate                                 : 1 509 Kbps
Channel(s)                               : 6 channels
Channel positions                        : Front: L C R, Side: L R, LFE
Sampling rate                            : 48.0 KHz
Bit depth                                : 24 bits
Compression mode                         : Lossy
Stream size                              : 1.30 GiB (17%)
Title                                    : DTS
Language                                 : German
Default                                  : Yes
Forced                                   : No


Download:
Share Online Share OnlineShare OnlineShare Online
 

Kommentare